Cô Dâu Đại Chiến (2011) NTSC DVD

(Ngọc Diệp, Huy Khánh, Phi Thanh Vân, Ngân Khánh)






Format : MPEG-PS
File size : 1 024 MiB
Duration : 24mn 28s
Overall bit rate mode : Variable
Overall bit rate : 5 849 Kbps

Video
Format : MPEG Video
Duration : 24mn 28s
Bit rate : 5 540 Kbps
Maximum bit rate : 7 000 Kbps
Width : 720 pixels
Height : 480 pixels
Display aspect ratio : 16:9
Frame rate : 23.976 fps
Standard : NTSC
Scan type : Progressive
Stream size : 970 MiB (95%)


Audio
Format : AC-3
Bit rate : 192 Kbps
Channel(s) : 2 channels
Channel positions : Front: L R
Stream size : 33.6 MiB (3%)

Thành công với các phim “chuyện tình xa xứ”, “Giao lộ định mệnh”, đạo diễn Victor Vũ tiếp tục cho ra mắt phim hài “Cô dâu đại chiến” mùa tết này. Đây là bộ phim hài nói về 5 cô gái với 5 ngành nghề, cá tính với những số phận khác nhau nhưng cùng đem lòng yêu một anh chàng “Don Juan thời hiện đại” (Huy Khánh thủ vai). Cả 5 cô gái đều tìm mọi cách để có được tình yêu của mình, và từ đó gây ra nhiều tình huống hài hước, thú vị.

Cô dâu đại chiến của đạo diễn Victor Vũ còn có sự tham gia của các diễn viên Huy Khánh, Ngọc Diệp, Lê Khánh, Phi Thanh Vân, Vân Trang. Bộ phim sẽ được công chiếu đúng vào dịp Tết Nguyên Đán 2011. Hứa hẹn mang đến cho khán giả những nụ cười sảng khoái của tết này.



Trailer